osu file format v14

[General]
AudioFilename: 1.mp3
AudioLeadIn: 1500
PreviewTime: 19920
Countdown: 0
SampleSet: Normal
StackLeniency: 0.7
Mode: 0
LetterboxInBreaks: 0
WidescreenStoryboard: 0

[Editor]
DistanceSpacing: 0.6
BeatDivisor: 1
GridSize: 32
TimelineZoom: 1

[Metadata]
Title:Yami ~ Shoujo no Yume , Kyomu no Sekai ~
TitleUnicode:閻~少女ノ夢、虚無ノ世界~
Artist:44teru-k
ArtistUnicode:44teru-k
Creator:[Twinkle]
Version:Standard
Source:BMS
Tags:xholic Stream [Minakami_Yuki]
BeatmapID:374404
BeatmapSetID:149173

[Difficulty]
HPDrainRate:3
CircleSize:3
OverallDifficulty:4
ApproachRate:4
SliderMultiplier:1.4
SliderTickRate:1

[Events]
//Background and Video events
0,0,"0030110128.jpg",0,0
//Break Periods
2,69344,80132
2,93959,104747
//Storyboard Layer 0 (Background)
//Storyboard Layer 1 (Fail)
//Storyboard Layer 2 (Pass)
//Storyboard Layer 3 (Foreground)
//Storyboard Sound Samples
//Background Colour Transformations
3,100,163,162,255

[TimingPoints]
1452,384.615384615385,4,1,1,60,1,0
7605,-100,4,1,1,60,0,1
7702,-100,4,1,1,60,0,0
18182,-100,4,1,1,60,0,0
44528,-100,4,1,1,60,0,1
44625,-100,4,1,1,60,0,0
56836,-100,4,1,1,60,0,1
56932,-100,4,1,1,60,0,0
69144,-100,4,1,1,60,0,0
81452,-100,4,1,1,70,0,0
93952,-100,4,1,1,70,0,0
106067,-100,4,1,1,70,0,1
106163,-100,4,1,1,70,0,0
118759,-100,4,1,1,70,0,0
119144,-100,4,1,1,30,0,0

[Colours]
Combo1 : 255,0,0
Combo2 : 194,134,255
Combo3 : 255,155,255
Combo4 : 157,157,255
Combo5 : 255,196,136

[HitObjects]
160,88,7605,5,12,0:0:0:0:
232,136,7990,1,8,0:0:0:0:
304,88,8375,1,8,0:0:0:0:
376,136,8759,1,8,0:0:0:0:
376,224,9144,5,8,0:0:0:0:
304,272,9529,1,8,0:0:0:0:
232,224,9914,1,8,0:0:0:0:
160,272,10298,1,8,0:0:0:0:
232,224,10682,6,0,L|232:80,2,140,8|8|8,0:0|0:0|0:0,0:0:0:0:
320,228,11836,1,8,0:0:0:0:
320,228,12221,2,0,L|320:88,2,140,8|8|8,0:0|0:0|0:0,0:0:0:0:
320,312,13375,1,8,0:0:0:0:
320,312,13759,6,0,B|371:314|411:268|403:218,1,140,8|8,0:0|0:0,0:0:0:0:
320,228,14528,2,0,B|269:226|229:272|237:322,1,140,8|8,0:0|0:0,0:0:0:0:
152,306,15298,2,0,L|120:162,1,140,8|8,0:0|0:0,0:0:0:0:
208,182,16067,2,0,L|238:322,1,140,8|8,0:0|0:0,0:0:0:0:
320,312,16836,6,0,B|311:271|338:230|382:222|414:239,1,140,8|8,0:0|0:0,0:0:0:0:
405,151,17605,2,0,B|444:151|478:125|490:88|482:55,1,140,8|8,0:0|0:0,0:0:0:0:
398,65,18375,6,0,B|359:65|325:91|313:128|321:161,1,140,4|8,0:0|0:0,0:0:0:0:
240,160,19144,2,0,B|249:111|212:65|162:65,1,140,4|8,0:0|0:0,0:0:0:0:
98,121,19913,5,12,0:0:0:0:
98,289,20682,1,8,0:0:0:0:
98,121,21452,1,8,0:0:0:0:
162,65,21836,1,8,0:0:0:0:
226,121,22221,1,8,0:0:0:0:
304,256,22990,5,8,0:0:0:0:
408,128,23759,1,8,0:0:0:0:
240,128,24528,1,8,0:0:0:0:
292,196,24913,1,8,0:0:0:0:
236,256,25298,1,8,0:0:0:0:
404,272,26067,6,0,L|476:330,2,70,8|0|8,0:0|0:0|0:0,0:0:0:0:
416,188,26836,2,0,L|474:116,2,70,8|0|8,0:0|0:0|0:0,0:0:0:0:
344,148,27605,2,0,L|272:82,2,70,8|0|8,0:0|0:0|0:0,0:0:0:0:
272,192,28375,2,0,L|214:264,2,70,8|0|8,0:0|0:0|0:0,0:0:0:0:
194,156,29144,6,0,B|166:192|166:192|134:232|150:280,1,140,8|8,0:0|0:0,0:0:0:0:
216,330,29913,2,0,B|266:334|298:293|298:293|326:257,1,140,8|8,0:0|0:0,0:0:0:0:
400,217,30682,1,0,2:0:0:0:
431,51,31452,1,0,2:0:0:0:
276,112,32221,6,0,L|292:40,2,70,12|0|8,0:0|0:0|0:0,0:0:0:0:
192,116,32990,2,0,L|208:48,2,70,8|0|8,0:0|0:0|0:0,0:0:0:0:
192,200,33759,2,0,L|208:276,2,70,8|0|8,0:0|0:0|0:0,0:0:0:0:
108,200,34528,2,0,L|124:272,2,70,8|0|8,0:0|0:0|0:0,0:0:0:0:
268,252,35682,5,8,0:0:0:0:
349,261,36067,1,8,0:0:0:0:
363,346,36452,1,8,0:0:0:0:
288,383,36836,1,8,0:0:0:0:
229,323,37221,1,8,0:0:0:0:
80,120,38375,5,8,0:0:0:0:
132,186,38759,1,8,0:0:0:0:
188,122,39144,1,8,0:0:0:0:
244,186,39528,1,8,0:0:0:0:
300,122,39913,2,0,L|316:32,2,70,8|0|0,0:0|0:0|0:0,0:0:0:0:
388,124,40682,2,0,L|400:52,2,70,0|0|8,0:0|0:0|0:0,0:0:0:0:
388,208,41452,6,0,L|460:228,2,70,12|8|8,0:0|0:0|0:0,0:0:0:0:
388,292,42221,2,0,L|464:312,2,70,12|8|8,0:0|0:0|0:0,0:0:0:0:
304,292,42990,2,0,L|234:292,2,70,12|8|8,0:0|0:0|0:0,0:0:0:0:
300,208,43759,2,0,L|230:208,2,70,12|8|8,0:0|0:0|0:0,0:0:0:0:
304,124,44528,6,0,B|177:124|177:124|129:180|129:180|49:180,1,280,12|8,0:0|0:0,0:0:0:0:
64,264,45682,1,8,0:0:0:0:
148,264,46067,2,0,B|274:264|274:264|322:208|322:208|402:208,1,280,8|8,0:0|0:0,0:0:0:0:
476,252,47221,1,8,0:0:0:0:
404,292,47605,6,0,B|348:348|348:348|144:348,1,280,8|8,0:0|0:0,0:0:0:0:
136,180,49144,1,8,0:0:0:0:
280,268,49913,1,8,0:0:0:0:
444,224,50682,6,0,B|445:184|420:149|383:135|349:140,3,140,12|8|8|8,0:0|0:0|0:0|0:0,0:0:0:0:
264,144,52221,2,0,B|261:184|286:219|323:232|357:224,3,140,12|8|8|8,0:0|0:0|0:0|0:0,0:0:0:0:
336,308,53759,6,0,L|319:375,2,70,12|0|8,0:0|0:0|0:0,0:0:0:0:
256,288,54528,2,0,L|237:359,2,70,8|0|8,0:0|0:0|0:0,0:0:0:0:
176,268,55298,2,0,L|157:339,2,70,8|0|8,0:0|0:0|0:0,0:0:0:0:
96,248,56067,2,0,L|77:319,2,70,8|0|8,0:0|0:0|0:0,0:0:0:0:
12,248,56836,6,0,B|12:152|12:152|68:96|68:96|172:96,1,280,12|8,0:0|0:0,0:0:0:0:
328,28,58375,2,0,B|224:28|224:28|244:44|256:64|264:84|268:168|180:180,1,280,8|8,0:0|0:0,0:0:0:0:
40,180,59913,2,0,B|120:180|120:180|116:124|171:94|171:94|139:66|131:30|144:8,1,280,8|8,0:0|0:0,0:0:0:0:
310,8,61452,2,0,B|321:26|313:62|281:90|281:90|336:120|332:176|332:176|412:176,1,280,8|8,0:0|0:0,0:0:0:0:
248,176,62990,6,0,B|229:135|185:114|141:123|113:150,3,140,12|8|8|8,0:0|0:0|0:0|0:0,0:0:0:0:
52,172,64528,2,0,B|71:213|115:234|159:225|187:198,3,140,12|8|8|8,0:0|0:0|0:0|0:0,0:0:0:0:
200,288,66067,6,0,L|248:344,2,70,12|0|8,0:0|0:0|0:0,0:0:0:0:
276,248,66836,2,0,L|324:304,2,70,12|0|8,0:0|0:0|0:0,0:0:0:0:
348,204,67605,2,0,L|396:260,2,70,12|0|8,0:0|0:0|0:0,0:0:0:0:
424,164,68375,2,0,L|472:220,2,70,12|0|8,0:0|0:0|0:0,0:0:0:0:
500,124,69144,5,12,0:0:0:0:
129,128,81452,6,0,B|198:54|314:56|381:127,2,280,12|8|8,0:0|0:0|0:0,0:0:0:0:
260,228,83759,1,8,0:0:0:0:
260,228,84528,6,0,B|316:291|405:307|481:273|523:213,2,280,8|8|8,0:0|0:0|0:0,0:0:0:0:
188,76,86836,1,8,0:0:0:0:
188,76,87605,6,0,B|220:28|220:28|308:28,1,140,8|8,0:0|0:0,0:0:0:0:
272,108,88375,2,0,B|240:156|240:156|152:156,1,140,8|8,0:0|0:0,0:0:0:0:
188,236,89144,2,0,L|332:236,1,140,8|0,0:0|0:0,0:0:0:0:
344,320,89913,2,0,L|204:320,1,140,0|0,0:0|0:0,0:0:0:0:
188,236,90682,6,0,L|127:204,2,70,12|0|8,0:0|0:0|0:0,0:0:0:0:
256,184,91452,2,0,L|194:152,2,70,12|0|8,0:0|0:0|0:0,0:0:0:0:
324,136,92221,2,0,L|386:168,2,70,12|0|8,0:0|0:0|0:0,0:0:0:0:
392,84,92990,2,0,L|454:116,2,70,12|0|8,0:0|0:0|0:0,0:0:0:0:
460,32,93759,5,12,0:0:0:0:
408,281,106067,6,0,B|368:345|368:345|303:345,1,140,12|8,0:0|0:0,0:0:0:0:
215,345,106836,2,0,B|151:345|151:345|111:281,1,140,8|8,0:0|0:0,0:0:0:0:
108,196,107605,2,0,B|148:132|148:132|236:132,1,140,8|8,0:0|0:0,0:0:0:0:
300,132,108375,2,0,B|365:132|365:132|405:196,1,140,8|8,0:0|0:0,0:0:0:0:
344,256,109144,6,0,L|392:328,2,70,8|0|8,0:0|0:0|0:0,0:0:0:0:
256,256,109913,2,0,L|208:328,2,70,8|0|8,0:0|0:0|0:0,0:0:0:0:
344,256,110682,2,0,L|416:256|408:256,2,70,8|0|8,0:0|0:0|0:0,0:0:0:0:
256,256,111452,2,0,L|184:256|192:256,2,70,8|8|8,0:0|0:0|0:0,0:0:0:0:
256,168,112221,6,0,B|256:96|256:96|312:56|312:56|312:56,1,140,8|8,0:0|0:0,0:0:0:0:
360,128,112990,2,0,B|360:200|360:200|304:240|304:240|304:240,1,140,8|8,0:0|0:0,0:0:0:0:
232,280,113759,2,0,B|264:320|264:320|352:320,1,140,8|0,0:0|0:0,0:0:0:0:
426,280,114528,2,0,B|394:240|394:240|306:240,1,140,0|0,0:0|0:0,0:0:0:0:
304,152,115298,6,0,L|320:76,2,70,12|8|12,0:0|0:0|0:0,0:0:0:0:
232,200,116067,2,0,L|248:276,2,70,12|8|12,0:0|0:0|0:0,0:0:0:0:
176,136,116836,2,0,L|156:64,2,70,12|8|12,0:0|0:0|0:0,0:0:0:0:
104,176,117605,2,0,L|76:268,2,70,12|8|12,0:0|0:0|0:0,0:0:0:0:
188,324,118759,6,0,B|234:343|283:341|324:323,1,140,12|0,0:0|0:0,0:0:0:0:
